网站地图设为首页收藏本站

无损音乐|无损音乐下载|APE|FLAC|WAV|无损音乐论坛|886

 找回密码
 注册论坛账号

QQ登录

只需一步,快速开始

扫一扫,访问微社区

查看: 813|回复: 1

余彬·昆曲-春色如许(德国版)[楚天之声原抓WAV+CUE]

[复制链接]
发表于 2013-9-30 15:30:58 | 显示全部楼层 |阅读模式
专辑名称:春色如许(德国版)
专辑艺人:余彬·昆曲
发行公司:瑞鸣唱片
ISRC编码:RMCD-G024
发行时间:2011年10月
资源类型:楚天正版原抓WAV+CUE



专辑介绍:

      在中国昆曲艺术被联合国教科文组织列入“人类口头和非物质遗产代表作” 10周年之际,由曾荣获美国音乐大奖及国内数十个奖项的知名音乐品牌“瑞鸣唱片”制作,上海昆剧团著名旦角表演艺术家余彬携手昆剧艺术大师蔡正仁、小生表演艺术家黎安,与上昆数十位演奏家倾情演绎的全新昆曲发烧大碟《春色如许》于10月28日北京国际音响展首度面市。著名音乐制作人叶云川继打造国内外广受好评的《伶歌》《粉墨是梦》等戏曲风格主题唱片外再续粉墨新篇,将被称为“百戏之祖”的世界非物质文化遗产——昆曲所独有的千种风情、万般意境精致展现。
      拥有六百年悠久历史的昆曲艺术,沉积了无数璀璨名篇,制作团队从中精心甄选十数首脍炙人口的旦行经典唱段,将这些传世音律尽收录于此雅集中。这里有《牡丹亭》畔杜丽娘的百转千回,《长生殿》中杨玉环的百媚千娇;亦有《玉簪记》中陈妙常、潘必正的海誓山盟,《白蛇传》里白素贞、许仙的情深意重;更有《窦娥冤》中窦娥的感天动地,可谓名篇荟萃,美不胜收。万千情缘、万千悲喜汇聚其中,令人怦然心动。
      专辑集中汇聚了昆曲旦行的诸多角色类型,演唱者余彬分别演绎闺门旦、正旦、刺杀旦等唱腔,听来花团锦簇,回味绵长,柔情、至情、激情、深情,几乎面面俱到。闺门旦有其从容端庄,一步三摇;正旦有其至情至性,满腔幽怨;刺杀旦则有其激越高亢,侠骨柔肠;还有各类人物所带有的独特韵致,令人眼花缭乱,历历在目。角色虽然纷繁,但演唱者亲和恬淡的内在气质贯穿于各唱段之中,如有娓娓道来的倾谈之感。而其声腔中所伴有独特多变的丰姿与风情,时而清雅、秀丽,时而温润、醇厚,……聆听者可从中尽享昆剧旦行诸般意蕴。
      如同以往瑞鸣唱片出品专辑,《春色如许-余彬.昆曲》的制作秉承了瑞鸣一贯追求高品质人文精神的创作原则。在演唱演奏者方面,可谓昆曲界群星云集。主唱由荣获多项大奖的国家一级演员、上海昆剧团优秀旦角表演艺术家余彬担纲;昆剧艺术大师蔡正仁、张静娴及小生表演艺术家黎安与上海昆剧团数十位演奏家携手献艺。更有著名音乐制作人叶云川用心打造,中国录音大师李大康一行赴上海精心录制,德国老虎鱼的全程后期制作及母版制造。这都充分体现了以国际品质打造中国音乐的瑞鸣唱片对艺术创作的不懈追求。
      作为中国传统文化的载体之一,代表古代士大夫阶层审美情趣、充满文人情怀的昆曲艺术将借由这《春色如许》优雅绽放。六百年旧曲再发新声,谛听此雅韵专辑,别是一番意蕴氤氲在耳,让我们在这缠绵委婉、端丽悠远的“水磨腔”中,体味昆曲那情思流转的万般意境,寻一段繁花似锦的往昔旧梦。




专辑曲目:

01.步步娇《牡丹亭·惊梦》
02.皂罗袍《牡丹亭·惊梦》
03.刮地风《长生殿·絮阁》
04.泣颜回《长生殿·惊变》
05.山坡羊《牡丹亭·惊梦》
06.叨叨令《铁冠图·刺虎》
07.风吹荷叶煞《孽海记·思凡》
08.滚绣球《窦娥冤·斩娥》
09.玉交枝《白蛇传·断桥》
10.金络索《白蛇传·断桥》
11.降黄龙《跃鲤记·芦林》
12.朝元歌《玉簪记·琴挑》
13.朝元歌·前腔《玉簪记·琴挑》
14.小桃红·五般宜《玉簪记·秋江》
15.忒忒令《牡丹亭·寻梦》

cue

PERFORMER "未知艺术家"
TITLE "余彬·昆曲-春色如许(德国版)"
REM DISCID EB102E0F
REM COMMENT "ExactAudioCopy v0.99pb5"
FILE "春色如许-余彬.昆曲.wav" WAVE
  TRACK 01 AUDIO
    TITLE "步步娇《牡丹亭·惊梦》"
    PERFORMER "【www.51ctzs.com】"
    REM GENRE 【www.51ctzs.com
    REM DATE 2011
    REM COPYRIGHT 【www.51ctzs.com】-楚天之声原抓WAV+CUE
    REM COMMENT http://www.51ctzs.com
    REM WWWUSER http://www.51ctzs.com
    INDEX 01 00:00:00
  TRACK 02 AUDIO
    TITLE "皂罗袍《牡丹亭·惊梦》"
    PERFORMER "【www.51ctzs.com】"
    REM GENRE 【www.51ctzs.com
    REM DATE 2011
    REM COPYRIGHT 【www.51ctzs.com】-楚天之声原抓WAV+CUE
    REM COMMENT http://www.51ctzs.com
    REM WWWUSER http://www.51ctzs.com
    INDEX 00 06:01:06
    INDEX 01 06:04:46
  TRACK 03 AUDIO
    TITLE "刮地风《长生殿·絮阁》"
    PERFORMER "【www.51ctzs.com】"
    REM GENRE 【www.51ctzs.com
    REM DATE 2011
    REM COPYRIGHT 【www.51ctzs.com】-楚天之声原抓WAV+CUE
    REM COMMENT http://www.51ctzs.com
    REM WWWUSER http://www.51ctzs.com
    INDEX 00 11:30:17
    INDEX 01 11:33:37
  TRACK 04 AUDIO
    TITLE "泣颜回《长生殿·惊变》"
    PERFORMER "【www.51ctzs.com】"
    REM GENRE 【www.51ctzs.com
    REM DATE 2011
    REM COPYRIGHT 【www.51ctzs.com】-楚天之声原抓WAV+CUE
    REM COMMENT http://www.51ctzs.com
    REM WWWUSER http://www.51ctzs.com
    INDEX 00 14:36:35
    INDEX 01 14:39:01
  TRACK 05 AUDIO
    TITLE "山坡羊《牡丹亭·惊梦》"
    PERFORMER "【www.51ctzs.com】"
    REM GENRE 【www.51ctzs.com
    REM DATE 2011
    REM COPYRIGHT 【www.51ctzs.com】-楚天之声原抓WAV+CUE
    REM COMMENT http://www.51ctzs.com
    REM WWWUSER http://www.51ctzs.com
    INDEX 00 19:59:67
    INDEX 01 20:02:46
  TRACK 06 AUDIO
    TITLE "叨叨令《铁冠图·刺虎》"
    PERFORMER "【www.51ctzs.com】"
    REM GENRE 【www.51ctzs.com
    REM DATE 2011
    REM COPYRIGHT 【www.51ctzs.com】-楚天之声原抓WAV+CUE
    REM COMMENT http://www.51ctzs.com
    REM WWWUSER http://www.51ctzs.com
    INDEX 00 26:08:26
    INDEX 01 26:10:60
  TRACK 07 AUDIO
    TITLE "风吹荷叶煞《孽海记·思凡》"
    PERFORMER "【www.51ctzs.com】"
    REM GENRE 【www.51ctzs.com
    REM DATE 2011
    REM COPYRIGHT 【www.51ctzs.com】-楚天之声原抓WAV+CUE
    REM COMMENT http://www.51ctzs.com
    REM WWWUSER http://www.51ctzs.com
    INDEX 00 29:00:27
    INDEX 01 29:03:21
  TRACK 08 AUDIO
    TITLE "滚绣球《窦娥冤·斩娥》"
    PERFORMER "【www.51ctzs.com】"
    REM GENRE 【www.51ctzs.com
    REM DATE 2011
    REM COPYRIGHT 【www.51ctzs.com】-楚天之声原抓WAV+CUE
    REM COMMENT http://www.51ctzs.com
    REM WWWUSER http://www.51ctzs.com
    INDEX 00 31:51:50
    INDEX 01 31:53:42
  TRACK 09 AUDIO
    TITLE "玉交枝《白蛇传·断桥》"
    PERFORMER "【www.51ctzs.com】"
    REM GENRE 【www.51ctzs.com
    REM DATE 2011
    REM COPYRIGHT 【www.51ctzs.com】-楚天之声原抓WAV+CUE
    REM COMMENT http://www.51ctzs.com
    REM WWWUSER http://www.51ctzs.com
    INDEX 00 36:15:40
    INDEX 01 36:17:37
  TRACK 10 AUDIO
    TITLE "金络索《白蛇传·断桥》"
    PERFORMER "【www.51ctzs.com】"
    REM GENRE 【www.51ctzs.com
    REM DATE 2011
    REM COPYRIGHT 【www.51ctzs.com】-楚天之声原抓WAV+CUE
    REM COMMENT http://www.51ctzs.com
    REM WWWUSER http://www.51ctzs.com
    INDEX 00 37:12:57
    INDEX 01 37:16:51
  TRACK 11 AUDIO
    TITLE "降黄龙《跃鲤记·芦林》"
    PERFORMER "【www.51ctzs.com】"
    REM GENRE 【www.51ctzs.com
    REM DATE 2011
    REM COPYRIGHT 【www.51ctzs.com】-楚天之声原抓WAV+CUE
    REM COMMENT http://www.51ctzs.com
    REM WWWUSER http://www.51ctzs.com
    INDEX 00 44:08:28
    INDEX 01 44:11:04
  TRACK 12 AUDIO
    TITLE "朝元歌《玉簪记·琴挑》"
    PERFORMER "【www.51ctzs.com】"
    REM GENRE 【www.51ctzs.com
    REM DATE 2011
    REM COPYRIGHT 【www.51ctzs.com】-楚天之声原抓WAV+CUE
    REM COMMENT http://www.51ctzs.com
    REM WWWUSER http://www.51ctzs.com
    INDEX 00 48:02:25
    INDEX 01 48:04:68
  TRACK 13 AUDIO
    TITLE "朝元歌·前腔《玉簪记·琴挑》"
    PERFORMER "【www.51ctzs.com】"
    REM GENRE 【www.51ctzs.com
    REM DATE 2011
    REM COPYRIGHT 【www.51ctzs.com】-楚天之声原抓WAV+CUE
    REM COMMENT http://www.51ctzs.com
    REM WWWUSER http://www.51ctzs.com
    INDEX 00 53:43:43
    INDEX 01 53:46:02
  TRACK 14 AUDIO
    TITLE "小桃红·五般宜《玉簪记·秋江》"
    PERFORMER "【www.51ctzs.com】"
    REM GENRE 【www.51ctzs.com
    REM DATE 2011
    REM COPYRIGHT 【www.51ctzs.com】-楚天之声原抓WAV+CUE
    REM COMMENT http://www.51ctzs.com
    REM WWWUSER http://www.51ctzs.com
    INDEX 00 56:58:41
    INDEX 01 57:01:11
  TRACK 15 AUDIO
    TITLE "忒忒令《牡丹亭·寻梦》"
    PERFORMER "【www.51ctzs.com】"
    REM GENRE 【www.51ctzs.com
    REM DATE 2011
    REM COPYRIGHT 【www.51ctzs.com】-楚天之声原抓WAV+CUE
    REM COMMENT http://www.51ctzs.com
    REM WWWUSER http://www.51ctzs.com
    INDEX 00 64:42:13
    INDEX 01 64:44:60





春色如许-余彬.昆曲.wav(696.91MB)

回复

使用道具 举报

发表于 2016-10-25 10:49:31 | 显示全部楼层
好听的音乐,经典的音乐
回复 支持 反对

使用道具 举报

您需要登录后才可以回帖 登录 | 注册论坛账号

本版积分规则

更多

申明:本站所有资源由网友收集于网络,本站不提供下载,如侵犯你的权益请告知删除,邮箱:88@88liu.com|无损音乐|联系我们|88六社区    

GMT+8, 2017-12-14 01:07 , Processed in 0.083478 second(s), 29 queries .

Powered by Discuz! X3.2 Licensed

© 2001-2013 Comsenz Inc.

快速回复 返回顶部 返回列表